<?xml version="1.0" standalone="no"?>
<!DOCTYPE svg PUBLIC "-//W3C//DTD SVG 1.1//EN" "http://www.w3.org/Graphics/SVG/1.1/DTD/svg11.dtd" >
<svg xmlns="http://www.w3.org/2000/svg">
<metadata>Generated by IcoMoon</metadata>
<defs>
<font id="icomoon" horiz-adv-x="1024">
<font-face units-per-em="1024" ascent="960" descent="-64" />
<missing-glyph horiz-adv-x="1024" />
<glyph unicode="&#x20;" horiz-adv-x="512" d="" />
<glyph unicode="&#xe900;" glyph-name="littlearrowleft" horiz-adv-x="352" d="M347.199 751.172l-152.649 76.324-189.748-379.496 189.748-379.496 152.649 76.324-151.586 303.171z" />
<glyph unicode="&#xe901;" glyph-name="littlearrowright" horiz-adv-x="352" d="M4.801 144.828l152.649-76.324 189.748 379.496-189.748 379.496-152.649-76.324 151.586-303.171z" />
<glyph unicode="&#xe902;" glyph-name="io" horiz-adv-x="1497" d="M1260.308 448c0 174.014-141.065 315.077-315.081 315.077-174 0-315.073-141.063-315.073-315.077s141.073-315.077 315.073-315.077c174.016 0 315.081 141.063 315.081 315.077zM1496.615 448c0-282.768-246.863-512-551.39-512-304.516 0-551.38 229.232-551.38 512s246.863 512 551.38 512c304.526 0 551.39-229.232 551.39-512zM204.805 251.857c9.518 39.073 104.44 426.010 104.44 426.010 3.862 25.055-12.766 45.825-32.939 45.825h-238.52c-5.963 0-11.126-3.928-12.397-9.442l-17.161-74.605c-0.584-2.486 1.424-4.847 4.129-4.847h75.682c2.705 0 4.744-2.293 4.149-4.789-8.37-35.020-60.283-252.238-78.735-328.787-30.008-124.407-7.008-170.203 41.186-192.55 33.656-15.623 74.565-18.942 120.249-10.922 48.563 8.523 89.994 27.996 136.262 55.925 3.781 2.283 5.051 7.043 2.838 10.728-7.981 13.36-15.604 26.845-22.201 40.543-1.947 4.053-6.905 5.698-11.249 3.947-55.447-22.347-82.812 13.843-75.733 42.962zM315.063 881.003c-0.807-44.167-36.035-78.661-80.193-78.542s-78.124 34.821-77.317 78.989c0.807 44.167 36.035 78.677 80.193 78.55s78.124-34.821 77.317-78.997z" />
<glyph unicode="&#xe903;" glyph-name="tag" d="M634.268-26.816c-49.67-49.664-130.392-49.553-180.127 0.176l-388.562 388.516c-36.473 36.469-63.775 101.696-64.028 153.513l-1.548 317.117c-0.342 70.127 56.965 127.836 127.507 127.492l317.155-1.548c51.532-0.252 116.906-27.4 153.531-64.021l388.562-388.516c49.422-49.416 49.832-130.455 0.176-180.105l-352.666-352.624zM320 512c70.692 0 128 57.308 128 128s-57.308 128-128 128c-70.692 0-128-57.308-128-128s57.308-128 128-128v0z" />
<glyph unicode="&#xe904;" glyph-name="plus" d="M1024 396.8h-460.8v-460.8h-102.4v460.8h-460.8v102.4h460.8v460.8h102.4v-460.8h460.8v-102.4z" />
<glyph unicode="&#xe905;" glyph-name="target" d="M890.24 384c-27.368-160.738-153.446-286.56-314.24-313.6v-70.4c0-35.346-28.654-64-64-64s-64 28.654-64 64v69.824c-160.756 27.288-286.607 153.37-313.6 314.176h-70.4c-35.346 0-64 28.654-64 64s28.654 64 64 64h70.4c26.993 160.806 152.844 286.888 313.6 314.176v69.824c0 35.346 28.654 64 64 64s64-28.654 64-64v-70.4c160.794-27.040 286.872-152.862 314.24-313.6h69.76c35.346 0 64-28.654 64-64s-28.654-64-64-64h-69.76zM576 694.976v-54.976c0-35.346-28.654-64-64-64s-64 28.654-64 64v54.976c-89.699-23.253-159.755-93.285-183.040-182.976h55.040c35.346 0 64-28.654 64-64s-28.654-64-64-64h-55.040c23.285-89.691 93.341-159.723 183.040-182.976v54.976c0 35.346 28.654 64 64 64s64-28.654 64-64v-54.976c89.559 23.497 159.511 93.425 183.040 182.976h-55.040c-35.346 0-64 28.654-64 64s28.654 64 64 64h55.040c-23.529 89.551-93.481 159.479-183.040 182.976v0 0z" />
<glyph unicode="&#xe906;" glyph-name="bulle" horiz-adv-x="1071" d="M219.729 263.748l11.842-20.511-35.344-286.568 311.745 243.929 36.46 63.15h339.676c94.909 0 172.175 77.266 172.175 172.175v351.901c0 94.909-77.266 172.175-172.175 172.175h-711.933c-94.909 0-172.175-77.266-172.175-172.175v-351.901c0-94.909 77.266-172.175 172.175-172.175h47.554zM884.109 866.909c43.496 0 79.085-35.588 79.085-79.085v-351.901c0-43.496-35.588-79.085-79.085-79.085h-393.422l-54.303-94.055-120.206-94.057 11.6 94.057-54.303 94.055h-101.299c-43.496 0-79.085 35.588-79.085 79.085v351.901c0 43.496 35.588 79.085 79.085 79.085h711.933z" />
<glyph unicode="&#xe907;" glyph-name="check" horiz-adv-x="931" d="M302.902 281.754l-134.203 186.842-151.217-108.615 285.42-397.371 610.524 849.992-151.217 108.615z" />
<glyph unicode="&#xe908;" glyph-name="love" horiz-adv-x="1205" d="M207.749 926.785c-179.969-82.601-257.437-293.236-174.606-472.312 46.907-101.41 135.567-203.989 254.049-306.451 60.823-52.599 125.753-101.843 190.67-146.474 17.043-11.717 33.188-22.493 48.217-32.257l39.231-24.733c19.054-11.411 42.841-11.411 61.895 0l18.044 11.163 6.539 4.146c19.012 12.108 40.14 26.057 62.864 41.68 64.916 44.63 129.846 93.874 190.669 146.473 118.479 102.459 207.137 205.037 254.044 306.446 80.859 174.81 8.96 379.699-161.926 466.195l-12.68 6.115c-126.702 58.152-272.573 37.782-377.065-44.782l-11.437-9.429c-105.094 90.382-257.111 114.526-388.509 54.22zM546.113 100.82c-61.489 42.274-122.964 88.898-180.119 138.325-106.681 92.256-185.224 183.13-223.51 265.903-54.868 118.622-3.797 257.486 115.518 312.248 102.11 46.865 222.981 17.396 290.99-68.688 24.116-30.525 70.41-30.526 94.528-0.003 65.399 82.771 179.66 113.196 279.127 73.752l11.861-5.070c119.313-54.76 170.386-193.626 115.518-312.246-38.286-82.772-116.828-173.645-223.506-265.899-57.155-49.427-118.629-96.050-180.117-138.323l-34.265-23.087-15.879-10.364c-15.428 9.96-32.245 21.145-50.145 33.451z" />
<glyph unicode="&#xe909;" glyph-name="star" horiz-adv-x="1080" d="M539.927 122.182l-328.305-172.6 62.701 365.573-265.604 258.9 367.056 53.336 164.152 332.609 164.152-332.609 367.056-53.336-265.604-258.9 62.701-365.573z" />
<glyph unicode="&#xe90a;" glyph-name="arrowleft" horiz-adv-x="1184" d="M504.901 945.803l45.255-45.255-420.562-420.537 1047.307-0.011v-64l-1047.307 0.011 420.562-420.56-45.255-45.255-497.803 497.803 497.803 497.803z" />
<glyph unicode="&#xe90b;" glyph-name="arrowright" horiz-adv-x="1184" d="M679.099-49.803l-45.255 45.255 420.562 420.537-1047.307 0.011v64l1047.307-0.011-420.562 420.56 45.255 45.255 497.803-497.803-497.803-497.803z" />
<glyph unicode="&#xe90c;" glyph-name="hamburger" horiz-adv-x="1365" d="M34.133 960h1297.067c18.851 0 34.133-15.282 34.133-34.133s-15.282-34.133-34.133-34.133h-1297.067c-18.851 0-34.133 15.282-34.133 34.133s15.282 34.133 34.133 34.133zM34.133 4.267h1297.067c18.851 0 34.133-15.282 34.133-34.133s-15.282-34.133-34.133-34.133h-1297.067c-18.851 0-34.133 15.282-34.133 34.133s15.282 34.133 34.133 34.133zM34.133 482.133h1297.067c18.851 0 34.133-15.282 34.133-34.133s-15.282-34.133-34.133-34.133h-1297.067c-18.851 0-34.133 15.282-34.133 34.133s15.282 34.133 34.133 34.133z" />
<glyph unicode="&#xe90d;" glyph-name="eye" horiz-adv-x="1994" d="M124.914 450.153c301.307-294.693 613.52-435.933 928.414-419.817 114.294 5.837 229.467 32.675 342.315 79.763 90.966 37.96 180.68 89.097 266.649 151.994 98.91 72.362 170.281 144.040 206.809 183.708-301.568 294.942-614.024 436.133-929.221 419.747-114.702-5.958-230.276-33.066-343.506-80.568-91.137-38.237-180.991-89.688-267.061-152.934-98.014-72.020-168.302-142.65-204.398-181.893zM1004.63-63.999c-334.24 0-662.070 160.94-975.372 479.050l-29.258 29.708 26.118 32.586c3.729 4.652 93.118 115.251 249.444 230.116 91.878 67.512 188.035 122.54 285.801 163.554 122.901 51.561 248.676 81.001 373.831 87.503 352.968 18.367 699.381-142.362 1029.589-477.642l29.261-29.708-26.12-32.586c-3.729-4.65-93.118-115.249-249.442-230.116-91.878-67.512-188.037-122.538-285.801-163.554-122.906-51.558-248.679-81.001-373.833-87.503-18.075-0.938-36.178-1.408-54.217-1.408zM997.053 812.384c-200.922 0-364.384-163.462-364.384-364.385s163.462-364.383 364.384-364.383c200.922 0 364.384 163.46 364.384 364.383s-163.462 364.385-364.384 364.385zM997.053-10.105c-252.6 0-458.105 205.506-458.105 458.104 0 252.601 205.505 458.106 458.105 458.106s458.105-205.506 458.105-458.106c0-252.598-205.505-458.104-458.105-458.104zM1239.579 448c0-133.941-108.583-242.526-242.528-242.526s-242.525 108.585-242.525 242.526c0 133.944 108.581 242.526 242.525 242.526s242.528-108.583 242.528-242.526z" />
<glyph unicode="&#xe90e;" glyph-name="batteryright" horiz-adv-x="1741" d="M1421.256 446.762v-363.036h-0.028c0-8.4-6.977-15.208-15.568-15.208h-1254.551c-8.605 0-15.582 6.85-15.582 15.235v725.338c0 8.386 6.977 15.249 15.582 15.249h1254.551c8.591 0 15.568-6.822 15.568-15.208h0.028v-362.371zM1664.005 688.688h-107.222v120.403c0 81.616-67.651 147.76-151.124 147.76h-1254.551c-83.459 0-151.11-66.145-151.11-147.76v-725.338c0-81.616 67.651-147.747 151.11-147.747h1254.551c83.473 0 151.124 66.131 151.124 147.747v120.403h107.222c40.845 0 73.92 32.353 73.92 72.275v339.982c0 39.936-33.075 72.275-73.92 72.275v0z" />
<glyph unicode="&#xe90f;" glyph-name="batteryleft" horiz-adv-x="1741" d="M319.744 449.238l0.028 363.036c0 8.4 6.977 15.208 15.568 15.208h1254.551c8.605 0 15.582-6.85 15.582-15.235v-725.338c0-8.386-6.977-15.249-15.582-15.249h-1254.551c-8.591 0-15.568 6.822-15.568 15.208h-0.028v362.371zM76.995 207.312h107.222v-120.403c0-81.616 67.651-147.76 151.124-147.76h1254.551c83.459 0 151.11 66.145 151.11 147.76v725.338c0 81.616-67.651 147.747-151.11 147.747h-1254.551c-83.473 0-151.124-66.131-151.124-147.747v-120.403h-107.222c-40.845 0-73.92-32.353-73.92-72.275v-339.982c0-39.936 33.075-72.275 73.92-72.275v0z" />
<glyph unicode="&#xe910;" glyph-name="batteryrightcharged" horiz-adv-x="1741" d="M1059.556 461.853l-194.275-63.485v114.708c0 14.184-8.835 27.241-23.070 34.076-14.22 6.835-31.582 6.369-45.312-1.213l-262.656-145.33c-20.77-11.501-26.954-35.533-13.786-53.686 13.155-18.128 40.67-23.542 61.453-12.040l194.289 63.485v-114.696c0-14.184 8.835-27.241 23.070-34.076 6.689-3.221 14.094-4.826 21.471-4.826 8.288 0 16.576 2.021 23.841 6.039l262.656 145.33c20.77 11.489 26.94 35.521 13.786 53.673-13.155 18.14-40.67 23.542-61.467 12.040zM1422.794 448.333l-0.028-363.036c0-8.4-6.977-15.208-15.568-15.208h-1254.551c-8.605 0-15.582 6.85-15.582 15.235v725.338c0 8.386 6.977 15.249 15.582 15.249h1254.551c8.591 0 15.568-6.822 15.568-15.208h0.028v-362.371zM1665.543 690.259h-107.222v120.403c0 81.616-67.651 147.76-151.124 147.76h-1254.551c-83.459 0-151.11-66.145-151.11-147.76v-725.338c0-81.616 67.651-147.747 151.11-147.747h1254.551c83.473 0 151.124 66.131 151.124 147.747v120.403h107.222c40.845 0 73.92 32.353 73.92 72.275v339.982c0 39.936-33.075 72.275-73.92 72.275v0z" />
<glyph unicode="&#xe911;" glyph-name="batteryleftcharged" horiz-adv-x="1741" d="M681.444 434.147l194.275 63.485v-114.708c0-14.184 8.835-27.241 23.070-34.076 14.22-6.835 31.582-6.369 45.312 1.213l262.656 145.33c20.77 11.501 26.954 35.533 13.786 53.686-13.155 18.128-40.67 23.542-61.453 12.040l-194.289-63.485v114.696c0 14.184-8.835 27.241-23.070 34.076-6.689 3.221-14.094 4.826-21.471 4.826-8.288 0-16.576-2.021-23.841-6.039l-262.656-145.33c-20.77-11.489-26.94-35.521-13.786-53.673 13.155-18.14 40.67-23.542 61.467-12.040zM318.206 447.667v363.036h0.028c0 8.4 6.977 15.208 15.568 15.208h1254.551c8.605 0 15.582-6.85 15.582-15.235v-725.338c0-8.386-6.977-15.249-15.582-15.249h-1254.551c-8.591 0-15.568 6.822-15.568 15.208h-0.028v362.371zM75.457 205.741h107.222v-120.403c0-81.616 67.651-147.76 151.124-147.76h1254.551c83.459 0 151.11 66.145 151.11 147.76v725.338c0 81.616-67.651 147.747-151.11 147.747h-1254.551c-83.473 0-151.124-66.131-151.124-147.747v-120.403h-107.222c-40.845 0-73.92-32.353-73.92-72.275v-339.982c0-39.936 33.075-72.275 73.92-72.275v0z" />
<glyph unicode="&#xe912;" glyph-name="chevrondown" horiz-adv-x="1728" d="M863.999 290.274l-677.49 677.49-181.019-181.019 858.51-858.51 858.51 858.51-181.019 181.019z" />
<glyph unicode="&#xe913;" glyph-name="chevrontop" horiz-adv-x="1728" d="M864.001 605.726l677.49-677.49 181.019 181.019-858.51 858.51-858.51-858.51 181.019-181.019z" />
<glyph unicode="&#xe914;" glyph-name="chevronleft" horiz-adv-x="624" d="M217.923 448.001l404.051 404.051-107.948 107.948-512-512 512-512 107.948 107.948z" />
<glyph unicode="&#xe915;" glyph-name="chevronright" horiz-adv-x="624" d="M406.077 447.999l-404.051-404.051 107.948-107.948 512 512-512 512-107.948-107.948z" />
<glyph unicode="&#xe916;" glyph-name="technology" horiz-adv-x="1067" d="M1039.412 361.647c-1.234-6.738-7.697-11.199-14.435-9.964s-11.199 7.698-9.964 14.436c2.687 14.464 4.723 29.094 6.077 43.853 1.31 14.295 1.981 29.109 1.981 44.426 0 132.545-53.724 252.542-140.583 339.4s-206.855 140.583-339.4 140.583c-71.219 0-138.746-15.46-199.408-43.2-63.082-28.847-118.84-70.974-163.7-122.809-4.483-5.181-12.317-5.746-17.498-1.263s-5.747 12.317-1.263 17.498c47.154 54.484 105.792 98.779 172.158 129.127 63.939 29.238 134.963 45.534 209.713 45.534 139.414 0 265.631-56.511 356.995-147.874s147.874-217.58 147.874-356.995c0-15.394-0.736-30.963-2.176-46.662-1.435-15.642-3.569-31.015-6.369-46.089zM873.177 72.425c-5.181-4.482-13.015-3.918-17.498 1.263s-3.917 13.016 1.264 17.498c11.038 9.547 21.655 19.61 31.816 30.153 10.136 10.517 19.805 21.507 28.97 32.933 4.295 5.341 12.108 6.19 17.449 1.896s6.191-12.108 1.896-17.45c-9.61-11.979-19.764-23.519-30.428-34.584-10.647-11.049-21.816-21.63-33.468-31.709zM133.953 158.564c-4.026 5.557-2.786 13.326 2.771 17.353s13.326 2.786 17.352-2.771c7.84-10.825 16.212-21.406 25.087-31.718 8.983-10.435 18.204-20.299 27.639-29.562 4.886-4.805 4.951-12.662 0.146-17.547s-12.661-4.951-17.546-0.146c-10.31 10.123-20.019 20.474-29.098 31.020-9.155 10.636-17.948 21.769-26.351 33.37zM48.289 554.95c1.342 6.711 7.871 11.063 14.581 9.721s11.064-7.871 9.721-14.581c-3.133-15.497-5.524-31.341-7.134-47.493-1.555-15.606-2.351-31.682-2.351-48.199 0-13.787 0.575-27.395 1.702-40.798 1.155-13.742 2.863-27.193 5.098-40.334 1.127-6.764-3.443-13.162-10.208-14.29s-13.162 3.442-14.29 10.207c-2.392 14.063-4.198 28.2-5.39 42.375-1.192 14.167-1.8 28.456-1.8 42.839 0 16.838 0.863 33.732 2.546 50.629 1.677 16.825 4.199 33.482 7.522 49.924zM26.087 741.913c15.395 15.396 36.663 24.918 60.154 24.918s44.758-9.522 60.154-24.918c12.578-12.578 21.235-29.077 23.982-47.505l156.656 3.404c21.741 0.472 40.211-4.608 56.001-14.15 15.612-9.435 28.376-23.103 38.922-39.969l90.353-144.49c7.599-12.153 16.099-20.116 25.266-24.99 9.138-4.859 19.144-6.797 29.714-6.855l121.364-0.667c2.715 18.505 11.389 35.074 24.010 47.696 15.396 15.396 36.663 24.918 60.154 24.918s44.758-9.522 60.154-24.918c15.395-15.395 24.918-36.663 24.918-60.154s-9.523-44.758-24.918-60.154c-15.396-15.395-36.663-24.918-60.154-24.918s-44.758 9.523-60.154 24.918c-12.651 12.651-21.334 29.267-24.029 47.823l-121.442 0.668c-14.507 0.080-28.382 2.814-41.283 9.675-12.872 6.845-24.575 17.653-34.694 33.836l-90.354 144.49c-8.511 13.612-18.585 24.506-30.66 31.802-11.896 7.19-25.964 11.013-42.683 10.651l-157.069-3.413c-2.664-18.63-11.363-35.314-24.056-48.006-15.396-15.396-36.664-24.918-60.154-24.918s-44.759 9.522-60.154 24.918c-15.396 15.396-24.918 36.663-24.918 60.153 0 23.492 9.522 44.759 24.918 60.155zM86.241 741.946c-16.621 0-31.668-6.737-42.559-17.628s-17.627-25.937-17.627-42.559c0-16.62 6.736-31.668 17.627-42.558s25.938-17.627 42.559-17.627c16.62 0 31.668 6.737 42.559 17.627s17.627 25.938 17.627 42.558c0 16.622-6.737 31.669-17.627 42.559s-25.939 17.628-42.559 17.628zM772.818 514.42c-16.621 0-31.669-6.736-42.559-17.627s-17.627-25.938-17.627-42.559c0-16.621 6.737-31.669 17.627-42.558 10.891-10.891 25.938-17.628 42.559-17.628s31.669 6.737 42.558 17.628c10.891 10.89 17.628 25.937 17.628 42.558s-6.737 31.669-17.628 42.559c-10.89 10.891-25.937 17.627-42.558 17.627zM253.176 533.916c15.396 15.395 36.663 24.918 60.155 24.918 23.49 0 44.758-9.523 60.153-24.918s24.918-36.663 24.918-60.155c0-23.49-9.522-44.758-24.918-60.153s-36.663-24.918-60.153-24.918c-23.492 0-44.759 9.522-60.155 24.918s-24.918 36.663-24.918 60.153c0 23.492 9.523 44.759 24.918 60.155zM313.33 533.948c-16.621 0-31.669-6.737-42.559-17.628s-17.628-25.937-17.628-42.559c0-16.62 6.737-31.668 17.628-42.558s25.938-17.627 42.559-17.627c16.62 0 31.668 6.737 42.558 17.627s17.627 25.938 17.627 42.558c0 16.622-6.736 31.669-17.627 42.559s-25.938 17.628-42.558 17.628zM981.508 302.074c-16.622 0-31.668-6.737-42.559-17.628s-17.628-25.938-17.628-42.559c0-16.62 6.737-31.668 17.628-42.558s25.937-17.627 42.559-17.627c16.621 0 31.668 6.736 42.559 17.627s17.627 25.938 17.627 42.558c0 16.621-6.737 31.669-17.627 42.559s-25.938 17.628-42.559 17.628zM379.431 43.674l127.906 1.006c11.28 0.089 21.948 2.098 31.457 6.719 9.295 4.516 17.621 11.645 24.497 22.076l95.475 144.857c7.753 11.763 16.754 21.664 27.026 28.518 10.019 6.685 21.148 10.501 33.398 10.451l178.51-0.734c3.063 17.608 11.54 33.36 23.654 45.475 15.396 15.395 36.664 24.918 60.155 24.918s44.759-9.523 60.154-24.918c15.396-15.396 24.917-36.664 24.917-60.155s-9.522-44.758-24.917-60.153c-15.395-15.396-36.664-24.919-60.154-24.919s-44.759 9.523-60.155 24.919c-13.153 13.153-22.018 30.595-24.322 50.046l-177.939 0.731c-6.976 0.029-13.487-2.261-19.497-6.271-7.415-4.948-14.141-12.441-20.125-21.518l-95.474-144.857c-9.532-14.462-21.24-24.424-34.412-30.825-12.958-6.297-27.193-9.033-42.053-9.15l-128.074-1.007c-2.69-18.567-11.376-35.193-24.032-47.849-15.396-15.396-36.664-24.919-60.155-24.919s-44.758 9.523-60.154 24.919c-15.396 15.395-24.917 36.663-24.917 60.153s9.522 44.759 24.917 60.155c15.396 15.395 36.664 24.918 60.154 24.918s44.759-9.523 60.155-24.918c12.616-12.616 21.285-29.175 24.006-47.669zM295.27 91.375c-16.621 0-31.668-6.737-42.559-17.628s-17.627-25.938-17.627-42.559c0-16.62 6.737-31.668 17.627-42.558s25.938-17.627 42.559-17.627c16.622 0 31.668 6.736 42.559 17.627s17.628 25.938 17.628 42.558c0 16.621-6.737 31.669-17.628 42.559s-25.937 17.628-42.559 17.628zM24.918 321.753c15.396 15.395 36.663 24.918 60.155 24.918 23.49 0 44.758-9.523 60.153-24.918 12.625-12.626 21.3-29.201 24.013-47.712h236.97c2.713 18.511 11.387 35.086 24.012 47.712 15.396 15.395 36.663 24.918 60.155 24.918 23.49 0 44.758-9.523 60.153-24.918s24.918-36.664 24.918-60.155c0-23.49-9.522-44.758-24.918-60.153s-36.663-24.918-60.153-24.918c-23.492 0-44.759 9.522-60.155 24.918-12.625 12.625-21.299 29.2-24.012 47.711h-236.97c-2.713-18.511-11.388-35.086-24.013-47.711-15.396-15.396-36.663-24.918-60.153-24.918-23.492 0-44.759 9.522-60.155 24.918s-24.918 36.662-24.918 60.153c0 23.491 9.523 44.759 24.918 60.155zM85.072 321.785c-16.622 0-31.669-6.737-42.559-17.628s-17.628-25.938-17.628-42.559c0-16.62 6.737-31.668 17.628-42.558s25.937-17.627 42.559-17.627c16.62 0 31.668 6.736 42.558 17.627s17.627 25.938 17.627 42.558c0 16.621-6.737 31.668-17.627 42.559s-25.938 17.628-42.558 17.628zM490.377 321.785c-16.622 0-31.669-6.737-42.559-17.628s-17.628-25.938-17.628-42.559c0-16.62 6.737-31.668 17.628-42.558s25.937-17.627 42.559-17.627c16.62 0 31.668 6.736 42.558 17.627s17.627 25.938 17.627 42.558c0 16.621-6.737 31.668-17.627 42.559s-25.938 17.628-42.558 17.628zM661.254 660.81l94.238-0.532c6.844-0.026 12.372-5.597 12.346-12.442-0.028-6.846-5.598-12.373-12.443-12.346l-94.16 0.53c-2.716-18.504-11.389-35.073-24.011-47.694-15.395-15.396-36.663-24.918-60.153-24.918s-44.759 9.522-60.155 24.918c-15.395 15.396-24.918 36.663-24.918 60.153 0 23.492 9.523 44.759 24.918 60.155s36.664 24.918 60.155 24.918c23.49 0 44.758-9.523 60.153-24.918 12.651-12.651 21.335-29.268 24.030-47.824zM577.071 708.666c-16.621 0-31.668-6.737-42.559-17.628s-17.628-25.937-17.628-42.559c0-16.62 6.737-31.668 17.628-42.558s25.938-17.627 42.559-17.627c16.62 0 31.668 6.737 42.558 17.627s17.627 25.938 17.627 42.558c0 16.622-6.736 31.669-17.627 42.559-10.891 10.891-25.938 17.628-42.558 17.628zM690.486 92.081c15.395 15.396 36.663 24.918 60.154 24.918s44.758-9.522 60.154-24.918c15.395-15.396 24.918-36.663 24.918-60.155 0-23.49-9.523-44.758-24.918-60.153s-36.663-24.918-60.154-24.918c-23.491 0-44.759 9.522-60.154 24.918s-24.919 36.663-24.919 60.153c0 23.492 9.523 44.759 24.919 60.155zM750.64 92.113c-16.621 0-31.668-6.737-42.559-17.627s-17.628-25.938-17.628-42.56c0-16.62 6.737-31.668 17.628-42.558s25.938-17.627 42.559-17.627c16.62 0 31.668 6.737 42.559 17.627s17.627 25.938 17.627 42.558c0 16.622-6.737 31.669-17.627 42.56s-25.939 17.627-42.559 17.627zM262.081 771.529c-10.308 0-18.664-8.356-18.664-18.664s8.356-18.664 18.664-18.664c10.308 0 18.664 8.356 18.664 18.664s-8.356 18.664-18.664 18.664zM330.517 771.529c-10.308 0-18.664-8.356-18.664-18.664s8.356-18.664 18.664-18.664c10.308 0 18.664 8.356 18.664 18.664s-8.356 18.664-18.664 18.664zM398.953 771.529c-10.308 0-18.664-8.356-18.664-18.664s8.356-18.664 18.664-18.664c10.308 0 18.665 8.356 18.665 18.664s-8.357 18.664-18.665 18.664zM438.85-19.787c-10.308 0-18.664-8.356-18.664-18.664s8.356-18.664 18.664-18.664c10.309 0 18.665 8.356 18.665 18.664s-8.356 18.664-18.665 18.664zM507.287-19.787c-10.308 0-18.664-8.356-18.664-18.664s8.356-18.664 18.664-18.664c10.308 0 18.664 8.356 18.664 18.664s-8.356 18.664-18.664 18.664zM575.722-19.787c-10.308 0-18.664-8.356-18.664-18.664s8.356-18.664 18.664-18.664c10.308 0 18.664 8.356 18.664 18.664s-8.356 18.664-18.664 18.664zM702.853 332.986c-10.308 0-18.664-8.356-18.664-18.664s8.356-18.664 18.664-18.664c10.308 0 18.664 8.356 18.664 18.664s-8.356 18.664-18.664 18.664zM771.288 332.986c-10.308 0-18.664-8.356-18.664-18.664s8.356-18.664 18.664-18.664c10.308 0 18.664 8.356 18.664 18.664s-8.356 18.664-18.664 18.664zM839.725 332.986c-10.308 0-18.664-8.356-18.664-18.664s8.356-18.664 18.664-18.664c10.308 0 18.664 8.356 18.664 18.664s-8.356 18.664-18.664 18.664zM824.867 665.356c-10.308 0-18.664-8.356-18.664-18.664s8.356-18.664 18.664-18.664c10.308 0 18.665 8.356 18.665 18.664s-8.357 18.664-18.665 18.664zM893.303 665.356c-10.308 0-18.664-8.356-18.664-18.664s8.356-18.664 18.664-18.664c10.308 0 18.664 8.356 18.664 18.664s-8.356 18.664-18.664 18.664zM269.592 349.56c-10.308 0-18.664-8.356-18.664-18.665s8.356-18.664 18.664-18.664c10.308 0 18.664 8.356 18.664 18.664s-8.356 18.665-18.664 18.665zM338.029 349.56c-10.308 0-18.664-8.356-18.664-18.665s8.356-18.664 18.664-18.664c10.308 0 18.664 8.356 18.664 18.664s-8.356 18.665-18.664 18.665z" />
<glyph unicode="&#xe917;" glyph-name="featurestarget" d="M564.165 520.699c-21.456 17.644-48.855 28.25-78.677 28.25-68.61 0-124.428-56.086-124.428-125.026 0-68.935 55.818-125.021 124.428-125.021s124.426 56.086 124.426 125.021c0 28.252-9.387 54.339-25.173 75.297l107.172 108.26c43.067-48.933 69.257-113.222 69.257-183.556 0-152.881-123.67-277.261-275.683-277.261-152.015 0-275.686 124.38-275.686 277.261 0 152.885 123.672 277.264 275.686 277.264 71.435 0 136.605-27.47 185.628-72.453l-106.951-108.035zM580.179 423.922c0-52.54-42.478-95.286-94.691-95.286-52.215 0-94.693 42.746-94.693 95.286 0 52.544 42.478 95.291 94.693 95.291 21.677 0 41.662-7.385 57.641-19.765l-78.666-79.463 21.13-20.92 77.941 78.733c10.489-15.336 16.644-33.892 16.644-53.876v0zM807.725 99.826c-86.077-86.544-200.516-134.205-322.237-134.205s-236.159 47.662-322.238 134.205c-86.098 86.566-133.514 201.665-133.514 324.097 0 122.434 47.416 237.536 133.514 324.103 86.079 86.542 200.518 134.205 322.238 134.205 88.070 0 173.378-25.269 246.968-73.076l-9.456-128.011-30.967-31.283c-54.415 50.301-126.969 81.061-206.545 81.061-168.41 0-305.421-137.72-305.421-306.999s137.012-306.996 305.421-306.996c168.408 0 305.418 137.718 305.418 306.996 0 78.588-29.544 150.363-78.034 204.724l31.147 31.465 127.955 6.785c45.314-72.734 69.262-156.663 69.262-242.974 0-122.432-47.414-237.533-133.512-324.097v0zM877.74 818.56l88.934-25.721-95.7-96.219-117.474-6.231 8.746 118.433 93.061 93.567 22.433-83.829zM1023.153 807.456l-121.027 35.006-31.454 117.539-123.973-124.646c-77.976 50.13-168.153 76.61-261.211 76.61-129.693 0-251.622-50.776-343.319-142.972-91.679-92.177-142.169-214.724-142.169-345.071 0-130.343 50.49-252.891 142.169-345.068 91.699-92.195 213.626-142.97 343.319-142.97s251.62 50.774 343.317 142.97c91.679 92.177 142.167 214.724 142.167 345.068 0 91.445-25.264 180.395-73.079 257.6l125.261 125.933z" />
<glyph unicode="&#xe918;" glyph-name="cloud" horiz-adv-x="1280" d="M846.399 112.87l-76.756 91.355 29.239 24.567 48.418-57.627 53.582 59.919 28.465-25.455zM483.125 122.664l-53.515 59.901-48.413-57.617-29.236 24.567 76.763 91.362 82.881-92.773zM865.681 138.858l-37.664 6.319c8.517 50.748-3.264 101.776-33.175 143.681-29.906 41.898-74.329 69.639-125.085 78.113-72.216 12.114-143.971-17.125-187.287-76.305l-30.817 22.555c51.896 70.905 137.876 105.938 224.409 91.413 60.802-10.151 114.032-43.39 149.863-93.59 35.843-50.218 49.961-111.367 39.757-172.187zM637.887-54.042c-12.57 0-25.219 1.029-37.855 3.144-60.815 10.133-114.055 43.374-149.904 93.593-35.851 50.223-49.981 111.372-39.795 172.182l37.664-6.309c-8.501-50.743 3.295-101.771 33.211-143.684 29.921-41.916 74.352-69.655 125.113-78.115 74.093-12.387 149.183 19.783 191.346 81.97l31.607-21.433c-43.321-63.896-115.685-101.343-191.386-101.348zM1016.656 530.404l-37.002 9.448c6.324 24.77 9.532 50.223 9.532 75.648 0 13.759-0.955 27.632-2.831 41.236l37.827 5.222c2.118-15.327 3.19-30.957 3.19-46.458 0-28.61-3.605-57.24-10.716-85.097zM341.44 578.289c-30.817 18.298-66.213 27.968-102.364 27.968-13.746 0-27.37-1.365-40.485-4.056l-7.679 37.407c15.638 3.211 31.841 4.837 48.164 4.837 43.010 0 85.147-11.523 121.859-33.323l-19.495-32.834zM287.129 166.293h-48.052c-131.827 0-239.076 107.25-239.076 239.076 0 108.367 73.092 202.627 176.215 230.626-0.306 3.529-0.489 7.159-0.489 10.902 0 99.996 81.379 181.345 181.414 181.345 18.377 0 36.518-2.808 54.114-8.364 64.484 86.418 165.883 137.576 274.166 137.576 89.753 0 174.514-34.542 238.667-97.267 59.211-57.889 94.886-133.871 101.712-215.752 0.428 0.008 0.858 0.010 1.291 0.010 131.827 0 239.076-107.25 239.076-239.076 0-59.631-22.082-116.741-62.182-160.813-39.818-43.769-94.046-71.116-152.686-77.005l-1.907-0.094h-57.459v38.188h56.482c48.884 5.138 94.071 28.060 127.328 64.611 33.687 37.025 52.24 85.010 52.24 135.114 0 110.771-90.12 200.888-200.891 200.888-4.509 0-9.291-0.502-14.355-1.029l-23.497-2.378-0.524 20.577c-2.027 79.472-34.461 153.858-91.324 209.453-56.975 55.708-132.254 86.385-211.969 86.385-100.61 0-194.531-49.722-251.244-133.008l-8.7-12.774-14.306 5.848c-17.41 7.114-35.586 10.721-54.030 10.721-78.976 0-143.225-64.219-143.225-143.157 0-7.48 1.161-15.22 2.35-22.507l2.989-18.326-18.235-3.501c-94.351-18.107-162.83-101.040-162.83-197.194 0-110.771 90.117-200.891 200.888-200.891h48.052v-38.186z" />
<glyph unicode="&#xe919;" glyph-name="lightning" d="M512.001-37.403c-267.653 0-485.403 217.75-485.403 485.403s217.75 485.403 485.403 485.403c267.653 0 485.403-217.75 485.403-485.403s-217.75-485.403-485.403-485.403zM512.001 960c-282.318 0-512-229.682-512-512s229.682-512 512-512c282.318 0 512 229.682 512 512s-229.682 512-512 512zM449.082 219.438l36.741 171.36c0.731 3.414-0.12 6.982-2.317 9.698-2.194 2.716-5.502 4.295-8.997 4.295h-126.82l227.228 271.772-36.738-171.364c-0.731-3.418 0.116-6.982 2.314-9.698 2.194-2.72 5.502-4.295 8.997-4.295h126.82l-227.228-271.769zM701.062 514.344h-137.263l43.54 203.078c1.114 5.203-1.463 10.493-6.24 12.823-4.784 2.334-10.536 1.1-13.947-2.976l-273.089-326.626c-2.886-3.444-3.508-8.249-1.606-12.315 1.902-4.073 5.988-6.673 10.479-6.673h137.263l-43.54-203.078c-1.114-5.2 1.46-10.489 6.24-12.82 1.619-0.795 3.351-1.174 5.063-1.174 3.348 0 6.629 1.453 8.88 4.149l273.092 326.619c2.882 3.448 3.511 8.249 1.606 12.318-1.902 4.069-5.984 6.673-10.479 6.673v0zM512.001 807.467c-9.183 0-16.623 7.444-16.623 16.623v69.416c0 9.179 7.441 16.623 16.623 16.623s16.623-7.444 16.623-16.623v-69.416c0-9.179-7.441-16.623-16.623-16.623zM512.001-14.13c-9.183 0-16.623 7.441-16.623 16.623v69.416c0 9.183 7.441 16.623 16.623 16.623s16.623-7.441 16.623-16.623v-69.416c0-9.183-7.441-16.623-16.623-16.623zM135.91 431.376h-69.416c-9.179 0-16.623 7.444-16.623 16.623s7.444 16.623 16.623 16.623h69.416c9.179 0 16.623-7.444 16.623-16.623s-7.444-16.623-16.623-16.623zM957.507 431.376h-69.416c-9.183 0-16.623 7.444-16.623 16.623s7.441 16.623 16.623 16.623h69.416c9.183 0 16.623-7.444 16.623-16.623s-7.441-16.623-16.623-16.623zM246.064 697.313c-4.256 0-8.508 1.622-11.756 4.867l-49.082 49.086c-6.493 6.493-6.493 17.019 0 23.509s17.016 6.49 23.509 0l49.086-49.082c6.49-6.493 6.49-17.019 0-23.512-3.248-3.245-7.5-4.867-11.756-4.867zM827.020 116.357c-4.252 0-8.511 1.622-11.753 4.871l-49.086 49.086c-6.493 6.49-6.493 17.016 0 23.505 6.486 6.493 17.019 6.493 23.505 0l49.086-49.086c6.493-6.49 6.493-17.016 0-23.505-3.242-3.248-7.5-4.871-11.753-4.871zM196.98 116.357c-4.256 0-8.508 1.622-11.756 4.871-6.49 6.49-6.49 17.016 0 23.505l49.086 49.086c6.493 6.493 17.016 6.493 23.509 0 6.493-6.49 6.493-17.016 0-23.505l-49.082-49.086c-3.248-3.248-7.5-4.871-11.756-4.871zM777.936 697.313c-4.252 0-8.511 1.622-11.753 4.867-6.493 6.493-6.493 17.019 0 23.512l49.086 49.082c6.486 6.49 17.019 6.49 23.505 0 6.493-6.49 6.493-17.016 0-23.509l-49.086-49.086c-3.242-3.245-7.5-4.867-11.753-4.867z" />
<glyph unicode="&#xe91a;" glyph-name="featurescut" d="M838.415 38.839c10.516 59.982-29.723 117.337-89.706 127.856-18.594 3.258-37.783 1.704-55.502-4.5-8.469-2.964-12.935-12.241-9.968-20.708 2.966-8.474 12.235-12.932 20.711-9.967 12.482 4.366 26.020 5.462 39.143 3.156 42.33-7.418 70.729-47.895 63.308-90.223-7.424-42.331-47.905-70.732-90.23-63.308-20.506 3.599-38.384 14.965-50.341 32.005-8.19 11.674-12.928 25.053-13.945 38.921-0.444 3.532-0.132 14.168 0.98 19.303 2.091 9.676 5.171 18.929 10.294 27.277 0.011 0.021 0.017 0.034 0.028 0.055 0.228 0.371 0.433 0.756 0.628 1.148 0.049 0.102 0.108 0.194 0.155 0.292 0.171 0.353 0.314 0.722 0.461 1.086 0.052 0.136 0.117 0.276 0.168 0.41 0.099 0.277 0.174 0.565 0.26 0.847 0.148 0.493 0.27 0.981 0.366 1.482 0.052 0.241 0.112 0.475 0.147 0.726 0.021 0.129 0.026 0.265 0.044 0.399 0.42 3.265-0.149 6.67-1.819 9.763-0.085 0.156-0.16 0.313-0.252 0.475-0.026 0.041-0.041 0.084-0.067 0.125l-68.655 115.467c-4.585 7.709-14.557 10.242-22.274 5.656-7.713-4.586-10.252-14.557-5.662-22.27l2.645-4.445c-6.852 1.030-13.866-2.432-17.041-8.994-3.914-8.084-0.535-17.798 7.541-21.714 13.073-6.331 24.669-14.91 34.471-25.504 21.093-27.21 25.062-64.127 25.464-84.724-0.005-7.595-0.714-11.118-0.445-16.62-0.029-0.948 0.020-1.883 0.147-2.792 1.461-19.602 8.167-38.526 19.755-55.042 16.942-24.15 42.277-40.259 71.331-45.35 7.339-1.29 14.647-1.814 21.827-1.639 51.496 1.266 96.797 38.703 106.031 91.347zM503.943 225.079c-16.684-0.413-44.364-3.561-72.385-17.533l258.77 488.398c7.989-27.685 5.409-55.478-7.586-86.866-52.497-126.789-152.286-336.704-174.856-383.948-1.232-0.003-2.55-0.017-3.943-0.051zM388.788 43.708c-0.174 6.11-0.407 13.992-1.246 19.515-0.608 20.591 1.538 57.656 21.271 85.87 41.711 49.768 106.695 43.288 107.351 43.218 6.845-0.743 13.43 2.903 16.419 9.121 1.198 2.496 120.721 251.582 180.19 395.21 21.496 51.924 19.383 97.961-6.655 144.885-2.894 5.212-8.408 8.423-14.369 8.367-5.935-0.093-11.41-3.378-14.203-8.643l-335.744-633.702c-0.017-0.024-0.025-0.050-0.042-0.076-0.157-0.3-0.288-0.607-0.428-0.916-0.087-0.191-0.182-0.389-0.262-0.585-0.069-0.163-0.119-0.338-0.178-0.502-0.811-2.246-1.109-4.582-0.921-6.861 0.013-0.119 0.011-0.237 0.023-0.354 0.029-0.254 0.076-0.508 0.115-0.757 0.038-0.272 0.075-0.545 0.126-0.817 0.011-0.045 0.023-0.088 0.034-0.129 0.161-0.757 0.389-1.516 0.669-2.255 0.078-0.204 0.14-0.411 0.221-0.606 0.049-0.124 0.12-0.245 0.169-0.366 0.169-0.374 0.342-0.746 0.537-1.109 0.034-0.067 0.075-0.128 0.114-0.196 0.231-0.413 0.475-0.823 0.746-1.216 0.003-0.008 0.015-0.021 0.021-0.032 5.524-8.090 9.704-17.035 11.625-26.745 1.436-7.246 2.166-13.744 1.927-19.226-0.334-13.907-4.408-27.504-12.011-39.567-11.11-17.608-28.408-29.84-48.709-34.442-20.298-4.601-41.182-1.015-58.789 10.087-17.615 11.1-29.848 28.401-34.443 48.704-7.557 33.331 7.178 67.296 36.658 84.527 6.856 4.003 14.301 6.929 22.132 8.701 12.999 2.95 26.574 2.52 39.259-1.234 8.605-2.541 17.648 2.367 20.196 10.973 2.544 8.61-2.368 17.654-10.972 20.198-18.013 5.328-37.26 5.935-55.667 1.767-11.068-2.504-21.609-6.658-31.341-12.34-41.787-24.419-62.665-72.548-51.967-119.775 11.809-52.12 58.903-87.286 110.395-86.021 7.186 0.175 14.452 1.062 21.722 2.712 28.77 6.514 53.288 23.849 69.023 48.804 10.727 17.026 16.496 36.207 17.007 55.81zM475.76 272.429c0.311-12.589 10.769-22.556 23.365-22.246 12.592 0.311 22.551 10.78 22.243 23.368-0.31 12.597-10.774 22.554-23.365 22.244-12.597-0.309-22.553-10.77-22.243-23.365zM234.97 629.010c-6.314-0.012-12.316 2.371-16.899 6.711-4.925 4.665-7.646 10.969-7.659 17.749-0.027 13.515 10.946 24.53 24.459 24.557 6.315 0.013 12.319-2.37 16.9-6.71 4.925-4.665 7.645-10.969 7.658-17.749 0.028-13.515-10.944-24.531-24.459-24.558zM290.494 653.629c-0.032 15.153-6.359 29.818-17.363 40.24-10.392 9.844-24.003 15.249-38.32 15.22-30.642-0.060-55.523-25.040-55.461-55.683 0.030-15.151 6.359-29.817 17.362-40.238 10.393-9.844 24.002-15.251 38.321-15.223 30.642 0.062 55.523 25.042 55.461 55.684zM678.791 449.894c-5.852-6.178-5.586-15.931 0.592-21.783 3.104-2.939 7.11-4.335 11.071-4.212v0l130.939-0.005c8.577 0.019 15.517 6.987 15.5 15.564-0.097 48.782 37.378 88.545 83.541 88.639 8.578 0.016 15.519 6.984 15.501 15.563l-0.45 224.812c-0.001 0.009-0.001 0.020-0.002 0.031l-0.008 4.181c-0.017 8.578-6.984 15.517-15.563 15.501-46.162-0.093-83.798 39.519-83.896 88.303-0.016 8.578-6.984 15.518-15.563 15.501l-630.126-1.263c-8.578-0.016-15.517-6.985-15.5-15.561 0.098-48.784-37.379-88.547-83.543-88.639-8.577-0.017-15.518-6.985-15.5-15.563l0.010-4.211 0.439-220.6 0.009-4.212c0.017-8.577 6.985-15.517 15.563-15.5 46.162 0.092 83.798-39.522 83.895-88.303 0.017-8.578 6.986-15.518 15.563-15.502l268.331 0.832c0.557-0.029 1.114-0.028 1.671 0.004h0.027l-0.001 0.001c3.774 0.222 7.475 1.82 10.279 4.782 5.851 6.178 5.587 15.93-0.59 21.783-2.686 2.543-6.046 3.93-9.468 4.178l-0.007 0.002c-0.768 0.056-1.539 0.055-2.307-0.005l-253.427-0.486c-3.263 25.912-14.531 49.871-32.541 68.669-10.547 11.008-22.842 19.651-36.542 25.691-9.457 4.17-19.303 6.957-29.412 8.358l-0.4 200.138c10.103 1.44 19.937 4.27 29.379 8.476 13.673 6.093 25.935 14.786 36.439 25.837 17.934 18.869 29.105 42.874 32.265 68.796l600.986 1.205c3.264-25.912 14.531-49.871 32.541-68.668 10.548-11.009 22.843-19.653 36.542-25.692 9.458-4.169 19.304-6.957 29.411-8.357l0.402-200.139c-10.104-1.439-19.938-4.267-29.378-8.476-13.676-6.093-25.934-14.787-36.44-25.837-17.933-18.869-29.107-42.873-32.266-68.797l-116.818-0.224c0-0.001-0.001-0.001-0.001-0.002-4.070-0.010-8.13-1.618-11.15-4.808zM433.932 360.902c5.851 6.175 5.587 15.929-0.591 21.782-2.933 2.778-6.673 4.175-10.417 4.218l-390.628-0.421-0.392 195.749c0.004 0.152-0.041 0.293-0.121 0.425l-0.688 343.81 344.626 0.69c0.064-0.073 0.131-0.114 0.204-0.113l603.383 1.207 0.391-195.748c-0.003-0.151 0.041-0.291 0.12-0.423l0.688-343.812-320.454-0.958c-0.303 0.009-0.607 0.008-0.91-0.002h-0.022l-0.001-0.001c-3.906-0.132-7.764-1.739-10.663-4.8-5.853-6.178-5.588-15.931 0.59-21.783 2.624-2.486 5.893-3.865 9.234-4.159l0.004-0.001c0.923-0.081 1.852-0.079 2.774 0.007l335.041 0.666c8.578 0.017 15.518 6.984 15.501 15.563l-1.142 571.046c-0.009 4.386-1.838 8.34-4.767 11.159-0.068 0.067-0.135 0.133-0.205 0.2-0.037 0.035-0.076 0.068-0.114 0.103-0.019 0.017-0.038 0.034-0.057 0.051-2.868 2.636-6.628 4.107-10.54 4.1l-979.273-1.96c-8.579-0.017-15.517-6.985-15.501-15.563l1.142-571.046c0.009-4.369 1.824-8.31 4.734-11.126 0.079-0.078 0.157-0.156 0.237-0.233 2.891-2.735 6.723-4.262 10.712-4.255l403.794 0.809c0.004-0.001-0.020 0.003-0.057 0.010l1.769 0.002c0.3-0.008 0.6-0.007 0.9 0.003h0.063l0.001 0.003c3.896 0.139 7.743 1.746 10.637 4.801zM775.102 631.759c-0.279 0.013-0.557 0.020-0.835 0.017-0.023 0.001-0.049 0.001-0.071 0.003-0.006 0.001-0.013-0.002-0.019-0.003-4.75-0.061-9.407-2.305-12.372-6.473-4.933-6.934-3.308-16.555 3.625-21.488 2.415-1.718 5.158-2.634 7.914-2.813 0.019-0.002 0.038-0.007 0.057-0.007 0.127-0.003 0.264-0.008 0.395-0.011 0.166-0.007 0.332-0.020 0.498-0.019 0.038-0.001 0.075 0.001 0.114 0.001 3.046-0.078 6.674-0.081 9.592 0.337 2.842 0.407 5.604 1.022 8.271 1.829 25.804 7.811 42.808 33.556 38.877 61.049-2.143 14.999-10.456 28.638-22.805 37.423-6.236 4.436-13.207 7.483-20.512 9.052-6.167 1.88-13.103-0.263-17.047-5.806-4.932-6.936-3.31-16.556 3.625-21.489 1.924-1.369 4.057-2.231 6.237-2.617 0.001-0.001 0.002-0.002 0.003-0.002 3.395-0.657 6.804-2.4 9.689-4.451 0.521-0.371 1.024-0.758 1.51-1.162 4.669-3.883 7.682-9.265 8.551-15.345 1.913-13.378-7.415-25.818-20.793-27.732-1.282-0.183-3.052-0.297-4.504-0.293z" />
<glyph unicode="&#xe91b;" glyph-name="pocketwatch" horiz-adv-x="788" d="M645.133 604.792l54.164 54.185-27.855 27.844-54.164-54.185zM632.031 698.391l77.971-77.971 27.849 27.849-77.971 77.971zM771.489 338.023c0-213.051-172.699-385.763-385.742-385.763s-385.742 172.713-385.742 385.763c0 213.033 172.702 385.742 385.742 385.742s385.742-172.709 385.742-385.742zM732.105 338.023c0 191.282-155.070 346.358-346.358 346.358s-346.358-155.076-346.358-346.358c0-191.3 155.066-346.379 346.358-346.379s346.358 155.079 346.358 346.379zM434.213 338.023c0-26.767-21.708-48.475-48.475-48.475-26.746 0-48.454 21.708-48.454 48.475s21.708 48.475 48.454 48.475c26.767 0 48.475-21.708 48.475-48.475zM366.054 645.799v-77.153h39.385v77.153zM693.53 357.716h-77.153v-39.385h77.153zM405.439 30.24v77.153h-39.385v-77.153zM77.963 318.331h77.153v39.385h-77.153zM343.113 800.916c-13.945 12.235-22.078 29.792-22.078 48.683 0 35.749 28.97 64.724 64.703 64.724 35.752 0 64.724-28.973 64.724-64.724 0-18.891-8.133-36.448-22.078-48.683l25.975-29.605c22.378 19.634 35.488 47.934 35.488 78.288 0 57.503-46.606 104.109-104.109 104.109-57.486 0-104.088-46.61-104.088-104.109 0-30.354 13.109-58.654 35.488-78.288l25.975 29.605zM405.439 749.129v67.349h-39.385v-67.349zM399.671 324.099l176.706 176.706-27.849 27.849-176.706-176.706z" />
<glyph unicode="&#xe91c;" glyph-name="featuresface" d="M89.481 167.75c-3.871 0-7.708 1.553-10.533 4.479l-74.898 78.094c-5.57 5.806-5.368 15.034 0.439 20.615 5.784 5.581 15.011 5.39 20.615-0.428l39.407-41.095-7.618 35.637c-1.362 6.38 1.677 12.884 7.427 15.934 5.761 3.049 12.828 1.902 17.363-2.802l75.427-78.634c5.57-5.795 5.368-15.034-0.439-20.615-5.806-5.548-15.022-5.368-20.615 0.439l-39.936 41.624 7.629-35.637c1.35-6.358-1.688-12.862-7.438-15.923-2.161-1.137-4.512-1.688-6.83-1.688zM89.481 298.486c-3.871 0-7.708 1.553-10.533 4.479l-74.898 78.105c-5.57 5.806-5.368 15.056 0.439 20.615 5.784 5.581 15.011 5.39 20.615-0.428l39.407-41.106-7.618 35.649c-1.362 6.369 1.677 12.873 7.427 15.923 5.75 3.038 12.817 1.924 17.363-2.791l75.427-78.634c5.57-5.806 5.368-15.045-0.439-20.626-5.806-5.548-15.022-5.356-20.615 0.439l-39.936 41.635 7.629-35.649c1.35-6.358-1.688-12.862-7.438-15.923-2.161-1.137-4.512-1.688-6.83-1.688zM451.679 30.937c0.653 20.604-1.778 41.050-6.932 60.979 24.441-6.92 49.67-10.566 75.405-10.566h17.25c40.071 0 78.105 8.665 112.572 23.957l8.181-46.215c-57.243-49.276-138.15-60-206.477-28.154zM357.999 216.9l-40.69 77.498c-8.383 15.765-11.872 33.499-10.116 51.256l4.254 43.458c0.608 11.523-3.32 22.562-11.028 31.136-3.173 3.5-6.909 6.245-10.904 8.518-0.090 10.904-3.556 21.391-10.409 29.955-2.487 3.106-5.39 5.705-8.473 8.057v54.373c0 39.362 9.385 78.139 27.265 113.068 86.444-55.51 170.907-78.229 264.383-71.489 4.872 0.349 9.239 3.106 11.647 7.348 2.397 4.254 2.532 9.407 0.338 13.762l-36.74 72.727c71.455-28.233 152.936-48.432 219.068-17.723 19.546-36.178 30.326-76.44 30.326-117.692v-161.117c0-94.208-52.494-176.331-129.733-218.787-1.992-0.54-3.736-1.44-5.266-2.667-34.343-17.836-73.233-28.076-114.519-28.076h-17.25c-30.191 0-59.595 5.57-87.603 16.204-0.956 2.149-1.8 4.344-2.847 6.493-16.339 33.668-41.196 62.419-71.703 83.698zM218.128 471.876c-19.602 51.177-29.403 98.765-29.403 147.816 0 182.182 133.424 299.897 339.912 299.897 173.225 0 348.036-92.734 348.036-299.897 0-74.392-23.507-138.364-60.585-205.633v107.092c0 51.11-14.122 101.162-40.814 144.778-0.011 0.023-0.011 0.045-0.023 0.056-0.011 0.023-0.023 0.023-0.034 0.034-0.023 0.034-0.045 0.079-0.068 0.124-0.461 0.743-1.137 1.204-1.699 1.823-0.72 0.821-1.339 1.744-2.194 2.352-0.563 0.405-1.249 0.563-1.868 0.878-1.047 0.551-2.071 1.193-3.218 1.474-0.416 0.101-0.866 0.011-1.294 0.068-1.418 0.225-2.858 0.405-4.299 0.191-0.394-0.056-0.765-0.315-1.159-0.405-1.418-0.338-2.836-0.686-4.152-1.463-53.147-31.676-128-23.124-242.722 27.625-5.638 2.498-12.22 1.182-16.474-3.275-4.231-4.467-5.221-11.118-2.442-16.632l44.46-88.008c-83.135-1.733-157.493 22.269-237.14 76.372-3.32 2.251-7.449 3.083-11.365 2.161-3.927-0.878-7.314-3.331-9.362-6.797-25.352-42.772-38.754-91.654-38.754-141.357v-44.403c-8.113 0.315-16.080-1.272-23.338-4.872zM1000.531-31.302c-21.74 16.857-47.892 29.471-75.652 36.504l-238.254 60.281-9.52 53.799c81.751 47.633 137.171 135.483 138.758 236.341 54.036 88.154 89.954 167.148 89.954 264.068 0 196.822-151.563 329.053-377.181 329.053-220.756 0-369.068-132.231-369.068-329.053 0-56.027 12.029-112.066 36.133-170.907-1.913-4.119-3.477-8.44-4.186-13.076l-11.028-72.051c-10.15-66.301-0.023-133.255 29.302-193.626l49.265-101.432c4.85-9.97 7.022-20.694 7.573-31.474l-126.098-31.924c-27.738-7.022-53.901-19.636-75.675-36.504-6.358-4.929-7.528-14.088-2.588-20.457 2.858-3.702 7.168-5.649 11.534-5.649 3.117 0 6.257 0.99 8.912 3.061 18.623 14.415 41.084 25.229 64.951 31.271l114.407 28.965c-1.508-4.299-2.926-8.653-5.199-12.716l-15.979-28.998c-3.882-7.055-1.328-15.923 5.728-19.794 2.239-1.238 4.647-1.823 7.022-1.823 5.143 0 10.139 2.723 12.783 7.539l15.945 28.931c7.674 13.728 12.007 28.762 13.391 44.021 0.113 0.619 0.113 1.215 0.158 1.845 1.407 19.175-2.003 38.653-10.634 56.444l-49.276 101.432c-26.714 55.026-35.953 116.050-26.703 176.477l11.016 72.006c0.81 5.176 3.59 9.711 7.798 12.806 4.231 3.083 9.351 4.321 14.572 3.522 0.113-0.011 0.236 0.045 0.36 0.023 0.135-0.011 0.225-0.090 0.349-0.101 5.165-0.551 9.767-3.027 12.952-7.010 1.654-2.071 2.802-4.445 3.488-6.965-17.903-3.567-31.688-18.533-34.433-38.811l-9.205-69.857c-1.62-31.71 9.374-63.657 20.559-91.215l14.944-33.376c2.431-5.424 7.753-8.631 13.323-8.631 1.992 0 4.006 0.405 5.941 1.283 7.348 3.297 10.645 11.905 7.348 19.253l-14.741 32.892c-9.767 24.126-19.58 52.292-18.364 77.149l9.081 68.631c1.047 7.517 5.536 15.056 14.797 14.471 3.736-0.203 7.168-1.834 9.677-4.614 2.487-2.768 3.77-6.335 3.612-9.407l-4.209-42.783c-2.318-23.496 2.307-46.935 13.368-67.719l42.108-80.21c0.101-0.203 0.304-0.326 0.428-0.529 0.495-0.855 1.182-1.542 1.868-2.296 0.641-0.709 1.227-1.452 1.992-2.014 0.191-0.146 0.293-0.371 0.506-0.495 27.828-18.635 50.311-44.493 65.041-74.786 18.038-37.157 23.484-78.195 15.709-118.66-0.011-0.045 0.011-0.079 0-0.124-0.011-0.034-0.034-0.045-0.034-0.079-2.644-14.899-5.57-28.177-8.957-40.634-2.116-7.764 2.476-15.788 10.251-17.903 1.283-0.349 2.566-0.506 3.826-0.506 6.425 0 12.288 4.254 14.055 10.758 3.612 13.233 6.695 27.299 9.486 42.963 0 0.011 0 0.023 0.011 0.034 0 0.045 0.011 0.090 0.011 0.135 0.011 0.023 0.011 0.034 0.023 0.068v0.011c0.248 1.283 0.349 2.543 0.574 3.803 27.097-11.174 55.622-16.947 84.103-16.947 52.303 0 103.987 18.713 145.048 54.306l240.134-60.765c23.89-6.043 46.35-16.868 64.951-31.271 2.656-2.071 5.795-3.061 8.912-3.061 4.355 0 8.676 1.935 11.545 5.649 4.929 6.369 3.77 15.529-2.599 20.457zM459.558 193.871c41.736 26.241 96.706 26.241 138.443 0 2.408-1.519 5.086-2.228 7.742-2.228 4.839 0 9.587 2.419 12.356 6.819 4.287 6.819 2.228 15.81-4.58 20.097-51.042 32.082-118.446 32.082-169.478 0-6.808-4.287-8.867-13.278-4.58-20.097 4.276-6.83 13.301-8.856 20.097-4.591zM383.788 443.201c-8.046 0-14.572-6.515-14.572-14.572v-49.726c0-8.046 6.527-14.572 14.572-14.572 8.057 0 14.584 6.527 14.584 14.572v49.726c0 8.057-6.527 14.572-14.584 14.572zM673.766 364.332c8.057 0 14.572 6.527 14.572 14.572v49.726c0 8.057-6.515 14.572-14.572 14.572s-14.584-6.515-14.584-14.572v-49.726c0-8.046 6.527-14.572 14.584-14.572z" />
<glyph unicode="&#xe91d;" glyph-name="featuresline" horiz-adv-x="922" d="M19.279 471.791c-10.649 0-19.279-5.547-19.279-12.387 0-6.842 8.631-12.387 19.279-12.387h198.065c10.649 0 19.279 5.545 19.279 12.387 0 6.84-8.631 12.387-19.279 12.387h-198.065zM465.222 471.791c-10.65 0-19.287-5.547-19.287-12.387 0-6.842 8.636-12.387 19.287-12.387h437.432c10.65 0 19.289 5.545 19.289 12.387 0 6.84-8.639 12.387-19.289 12.387h-437.432zM399.998 516.519c-16.436 16.436-39.147 26.605-64.234 26.605s-47.798-10.169-64.234-26.605c-16.436-16.436-26.605-39.147-26.605-64.234s10.169-47.798 26.605-64.234c16.436-16.436 39.147-26.605 64.234-26.605s47.798 10.172 64.234 26.605c16.436 16.436 26.605 39.147 26.605 64.234s-10.169 47.798-26.605 64.234zM335.764 576.156c34.201 0 65.169-13.865 87.587-36.284 22.418-22.415 36.284-53.384 36.284-87.587s-13.865-65.172-36.284-87.587c-22.418-22.418-53.387-36.284-87.587-36.284-34.204 0-65.172 13.865-87.587 36.284-22.418 22.415-36.284 53.384-36.284 87.587s13.865 65.172 36.284 87.587c22.415 22.418 53.384 36.284 87.587 36.284zM472.569 828.179c11.020 0 19.956 5.546 19.956 12.386s-8.936 12.388-19.956 12.388h-452.61c-11.022 0-19.958-5.546-19.958-12.388 0-6.84 8.936-12.386 19.958-12.386h452.61zM897.2 828.179c9.16 0 16.588 5.546 16.588 12.386s-7.428 12.388-16.588 12.388h-170.416c-9.162 0-16.59-5.546-16.59-12.388 0-6.84 7.428-12.386 16.59-12.386h170.416zM504.073 923.716c22.416 22.419 53.384 36.284 87.588 36.284 34.201 0 65.17-13.865 87.588-36.284 22.416-22.419 36.281-53.384 36.281-87.588s-13.865-65.17-36.281-87.588c-22.419-22.416-53.387-36.284-87.588-36.284-34.204 0-65.173 13.868-87.588 36.284-22.419 22.419-36.284 53.384-36.284 87.588s13.865 65.17 36.284 87.588zM591.662 926.968c-25.087 0-47.802-10.169-64.238-26.605s-26.602-39.147-26.602-64.235c0-25.087 10.166-47.798 26.602-64.235s39.151-26.602 64.238-26.602c25.084 0 47.798 10.166 64.235 26.602s26.602 39.147 26.602 64.235c0 25.087-10.166 47.798-26.602 64.235s-39.151 26.605-64.235 26.605zM472.567 60.488c11.020 0 19.958 5.545 19.958 12.387s-8.939 12.387-19.958 12.387h-452.61c-11.022 0-19.956-5.545-19.956-12.387s8.933-12.387 19.956-12.387h452.61zM895.852 60.488c9.906 0 17.936 5.545 17.936 12.387s-8.030 12.387-17.936 12.387h-184.241c-9.903 0-17.934-5.545-17.934-12.387s8.030-12.387 17.934-12.387h184.241zM527.425 4.208c16.436-16.436 39.147-26.605 64.23-26.605 25.090 0 47.801 10.169 64.234 26.605 16.436 16.436 26.608 39.147 26.608 64.23 0 25.090-10.172 47.801-26.608 64.234-16.433 16.436-39.143 26.608-64.234 26.608-25.084 0-47.794-10.172-64.23-26.608-16.436-16.433-26.605-39.143-26.605-64.234 0-25.084 10.169-47.794 26.605-64.23zM591.656-55.43c-34.201 0-65.169 13.865-87.584 36.284-22.418 22.415-36.284 53.387-36.284 87.584 0 34.204 13.865 65.175 36.284 87.59 22.415 22.415 53.384 36.284 87.584 36.284 34.207 0 65.175-13.868 87.59-36.284s36.284-53.387 36.284-87.59c0-34.198-13.868-65.169-36.284-87.584-22.415-22.418-53.384-36.284-87.59-36.284z" />
<glyph unicode="&#xe91e;" glyph-name="featuresbrush" horiz-adv-x="819" d="M335.872 960h-143.36c-102.4 0-184.32-81.92-184.32-184.32v-655.36c0-102.4 81.92-184.32 184.32-184.32h143.36c102.4 0 184.32 81.92 184.32 184.32v655.36c0 102.4-81.92 184.32-184.32 184.32zM479.232 120.32c0-79.872-63.488-143.36-143.36-143.36h-143.36c-79.872 0-143.36 63.488-143.36 143.36v655.36c0 79.872 63.488 143.36 143.36 143.36h143.36c79.872 0 143.36-63.488 143.36-143.36v-655.36zM430.080 499.2v-86.016c0-10.24-8.192-20.48-20.48-20.48-10.24 0-20.48 10.24-20.48 20.48v86.016c0 10.24 10.24 20.48 20.48 20.48 12.288 0 20.48-10.24 20.48-20.48zM745.472 650.752v139.264c28.672 8.192 51.2 36.864 51.2 67.584 0 38.912-32.768 71.68-71.68 71.68s-71.68-32.768-71.68-71.68c0-32.768 22.528-59.392 51.2-67.584v-139.264c-36.864-8.192-65.536-43.008-65.536-81.92v-546.816c0-47.104 38.912-86.016 86.016-86.016s86.016 38.912 86.016 86.016v544.768c0 40.96-28.672 73.728-65.536 83.968zM694.272 857.6c0 6.144 2.048 12.288 6.144 16.384 2.048 2.048 4.096 6.144 8.192 8.192 4.096 4.096 10.24 6.144 16.384 6.144s12.288-2.048 16.384-6.144c2.048-2.048 6.144-4.096 8.192-8.192 4.096-4.096 6.144-10.24 6.144-16.384s-2.048-12.288-6.144-16.384c-2.048-2.048-4.096-6.144-8.192-8.192-4.096-4.096-10.24-6.144-16.384-6.144s-12.288 2.048-16.384 6.144c-4.096 2.048-6.144 4.096-8.192 8.192-4.096 4.096-6.144 10.24-6.144 16.384zM770.048 22.016c0-24.576-20.48-45.056-45.056-45.056s-45.056 20.48-45.056 45.056v544.768c0 24.576 20.48 45.056 45.056 45.056s45.056-20.48 45.056-45.056v-544.768zM700.416 841.216c2.048-2.048 4.096-6.144 8.192-8.192-4.096 2.048-6.144 4.096-8.192 8.192zM708.608 882.176c-4.096-2.048-6.144-4.096-8.192-8.192 2.048 4.096 4.096 6.144 8.192 8.192zM741.376 833.024c2.048 2.048 6.144 4.096 8.192 8.192-2.048-4.096-4.096-6.144-8.192-8.192zM749.568 873.984c-2.048 2.048-4.096 6.144-8.192 8.192 4.096-2.048 6.144-4.096 8.192-8.192z" />
<glyph unicode="&#xe91f;" glyph-name="tooth" horiz-adv-x="884" d="M451.138 374.693c40.418 0 73.742-24.901 96.747-72.478 17.24-35.656 22.643-71.739 22.866-73.258 0.083-0.57 0.134-1.144 0.155-1.72 7.861-213.323 65.661-253.050 76.562-258.653 26.469 2.659 62.21 23.35 88.558 103.237 16.25 49.27 21.298 98.91 22.011 106.654-11.6 198.008-1.157 237.462 1.059 243.371 0.186 0.494 0.395 0.979 0.629 1.454 51.662 104.819 82.366 196.605 91.253 272.806 6.941 59.498 0.619 109.349-18.787 148.165-31.738 63.483-88.427 76.861-93.040 77.851-123.262 16.626-216.68-16.698-273.384-47.602-61.235-33.374-93.322-70.517-93.638-70.888-5.738-6.718-15.837-7.518-22.557-1.779-6.722 5.738-7.518 15.835-1.781 22.557 1.131 1.325 22.597 26.181 63.509 54.222-15.078 3.194-26.114 7.997-26.874 8.333-0.165 0.072-0.326 0.149-0.488 0.226-106.142 51.154-206.589 39.666-207.59 39.538-0.226-0.026-0.451-0.050-0.678-0.067-44.696-3.522-79.453-20.738-103.306-51.174-52.613-67.13-39.326-179.043-37.074-195.202 95.781-211.618 95.384-273.822 93.182-287.523-7.438-118.672-4.038-278.816 54.054-369.954 26.651-41.811 54.23-51.862 62.442-54.011 6.493 2.899 23.371 16.856 38.997 83.874 10.248 43.966 14.306 87.597 14.346 88.034 7.573 92.629 33.36 159.982 76.632 200.037 32.411 30.002 63.709 33.302 68.088 33.622 2.731 0.219 5.437 0.328 8.107 0.328zM645.001-63.638c-1.224 0-2.443 0.141-3.635 0.419-9.464 2.208-92.648 29.026-102.4 288.307-1.72 10.352-22.186 123.050-93.414 117.376-0.262-0.021-0.234-0.024-0.438-0.030-1.941-0.16-25.035-2.554-50.355-26.992-44.914-43.352-59.901-120.45-64.565-177.493-0.182-2.003-4.275-46.146-14.992-92.235-15.859-68.202-37.677-103.888-66.699-109.101-1.507-0.269-3.045-0.323-4.565-0.155-1.946 0.211-48.094 5.93-88.394 69.152-50.485 79.202-70.317 210.454-58.946 390.117 0.083 1.328-0.035 1.394 0.309 2.442 0.578 5.922 2.734 62.738-91.686 270.949-0.578 1.272-0.984 2.613-1.213 3.99-0.933 5.624-22.088 138.72 43.088 222.016 29.549 37.765 71.856 59.101 125.746 63.414 8.131 0.938 112.454 11.6 224.672-42.366 2.195-0.923 24.854-10.19 45.106-8.064 4.357 0.458 8.498-0.882 11.67-3.422 61.32 32.635 160.312 66.65 289.675 49.078 0.267-0.037 0.533-0.080 0.798-0.13 3.088-0.579 76.093-15.125 116.051-95.050 22.238-44.483 29.624-100.395 21.95-166.186-9.275-79.515-40.795-174.366-93.686-281.926-1.458-6.154-9.672-50.355 0.971-231.288 0.045-0.734 0.037-1.47-0.021-2.203-0.76-9.578-20.022-234.613-144.256-240.6-0.258-0.019-0.515-0.019-0.771-0.019z" />
<glyph unicode="&#xe920;" glyph-name="5Modes" horiz-adv-x="1568" d="M781.211 621.512c-39.822 0-68.267 11.378-85.333 45.511l-5.689 5.689-28.444-17.067 5.689-5.689c11.378-17.067 28.444-34.133 45.511-45.511s39.822-17.067 68.267-17.067c34.133 0 62.578 11.378 91.022 34.133 22.756 22.756 34.133 51.2 34.133 85.333s-11.378 62.578-34.133 85.333c-22.756 22.756-51.2 34.133-85.333 34.133-22.756 0-45.511-5.689-62.578-11.378v91.022h164.978v34.133h-199.111v-182.044l11.378-5.689h5.689c22.756 17.067 51.2 28.444 79.644 28.444s51.2-5.689 62.578-22.756c11.378-11.378 22.756-34.133 22.756-62.578 0-22.756-5.689-45.511-22.756-62.578-17.067 0-39.822-11.378-68.267-11.378zM223.7 143.645l-170.667 221.867h-17.067v-403.911h34.133v318.578c0 0 0 5.689 0 5.689l142.222-193.422h17.067l136.533 182.044c0 5.689 5.689 5.689 5.689 11.378v-324.267h34.133v403.911h-11.378l-170.667-221.867zM604.855 217.601c-34.133 0-68.267-11.378-91.022-39.822s-39.822-56.889-39.822-91.022c0-34.133 17.067-62.578 39.822-91.022 22.756-22.756 56.889-39.822 91.022-39.822s68.267 11.378 91.022 39.822c22.756 22.756 34.133 56.889 34.133 91.022s-11.378 68.267-34.133 91.022c-22.756 22.756-56.889 39.822-91.022 39.822zM604.855-4.266c-28.444 0-51.2 11.378-68.267 28.444s-22.756 34.133-22.756 62.578 5.689 51.2 28.444 68.267c17.067 17.067 39.822 28.444 68.267 28.444s45.511-11.378 62.578-28.444c17.067-17.067 22.756-39.822 22.756-68.267s-5.689-51.2-22.756-68.267c-22.756-17.067-39.822-22.756-68.267-22.756zM991.7 172.089c-5.689 11.378-17.067 17.067-28.444 22.756-17.067 11.378-39.822 17.067-62.578 17.067-34.133 0-62.578-11.378-85.333-34.133s-34.133-56.889-34.133-91.022c0-34.133 11.378-68.267 34.133-91.022s51.2-34.133 85.333-34.133c22.756 0 45.511 5.689 62.578 17.067 11.378 5.689 22.756 17.067 28.444 22.756v-39.822h34.133v426.667h-34.133v-216.178zM968.944 18.489c-17.067-17.067-39.822-28.444-62.578-28.444-28.444 0-45.511 11.378-62.578 28.444s-22.756 39.822-22.756 68.267c0 28.444 5.689 51.2 22.756 68.267s34.133 28.444 62.578 28.444c28.444 0 51.2-11.378 62.578-28.444 17.067-17.067 22.756-39.822 22.756-68.267s-5.689-51.2-22.756-68.267zM1213.566 217.601c-34.133 0-62.578-11.378-85.333-39.822-22.756-22.756-34.133-56.889-34.133-91.022s11.378-68.267 34.133-91.022c22.756-22.756 56.889-34.133 91.022-34.133 45.511 0 79.644 17.067 102.4 45.511l5.689 5.689-22.756 22.756-5.689-5.689c-22.756-22.756-45.511-34.133-79.644-34.133-28.444 0-51.2 5.689-68.267 22.756s-22.756 34.133-22.756 56.889h204.8v5.689c0 39.822-11.378 68.267-34.133 96.711-17.067 22.756-45.511 39.822-85.333 39.822zM1298.9 109.512h-170.667c5.689 22.756 11.378 39.822 28.444 51.2 17.067 17.067 34.133 22.756 56.889 22.756 28.444 0 45.511-5.689 56.889-22.756 17.067-17.067 22.756-34.133 28.444-51.2zM1537.833 81.067c-11.378 11.378-34.133 17.067-56.889 28.444-22.756 5.689-39.822 11.378-45.511 17.067s-11.378 11.378-11.378 22.756c0 11.378 5.689 17.067 11.378 22.756s17.067 11.378 28.444 11.378c22.756 0 39.822-11.378 51.2-28.444l5.689-5.689 28.444 17.067c-17.067 34.133-45.511 45.511-79.644 45.511-22.756 0-39.822-5.689-56.889-17.067s-22.756-28.444-22.756-45.511c0-22.756 5.689-39.822 22.756-45.511 11.378-11.378 34.133-17.067 56.889-22.756s39.822-11.378 51.2-22.756c5.689-5.689 11.378-11.378 11.378-28.444 0-11.378-5.689-17.067-11.378-28.444-17.067-5.689-28.444-5.689-45.511-5.689-34.133 0-56.889 11.378-68.267 39.822l-5.689 5.689-34.133-11.378v-5.689c5.689-17.067 22.756-34.133 39.822-45.511s39.822-17.067 62.578-17.067c28.444 0 45.511 5.689 62.578 22.756 17.067 11.378 22.756 28.444 22.756 51.2 5.689 17.067 0 34.133-17.067 45.511z" />
<glyph unicode="&#xe921;" glyph-name="YearWarranty" horiz-adv-x="1305" d="M661.124-54.804c-270.467 0-490.49 222.233-490.49 495.372 0 19.361 1.115 38.828 3.325 57.831 1.326 11.533 11.722 19.761 23.297 18.519 11.554-1.347 19.824-11.785 18.498-23.318-1.999-17.446-3.030-35.271-3.030-53.033 0-249.948 201.167-453.283 448.4-453.283 137.759 0 265.9 62.671 351.574 171.915 7.176 9.154 20.392 10.754 29.547 3.578s10.754-20.413 3.578-29.547c-93.712-119.513-233.933-188.035-384.698-188.035zM348.505 386.835l-151.101 164.107-163.034-152.196-28.747 30.746 170.862 159.498c6.208 5.766 13.911 8.839 22.749 8.439 8.439-0.337 16.247-3.956 21.95-10.165l158.278-171.915-30.957-28.516zM1110.175 378.956c-0.8 0-1.599 0.042-2.42 0.126-11.554 1.347-19.845 11.785-18.498 23.318 2.020 17.551 3.030 35.397 3.030 53.033 0 249.948-201.146 453.283-448.4 453.283-137.738 0-265.879-62.671-351.552-171.915-7.155-9.133-20.371-10.754-29.568-3.578-9.133 7.176-10.733 20.413-3.578 29.547 93.733 119.513 233.954 188.035 384.698 188.035 270.446 0 490.49-222.233 490.49-495.372 0-19.235-1.094-38.701-3.325-57.831-1.221-10.733-10.333-18.646-20.876-18.646zM1005.423 583.557c-4.609 0-8.818 3.030-10.123 7.66-42.931 152.132-175.45 249.359-345.891 253.715-75.972 2.147-132.919-9.596-233.428-78.034-4.735-3.283-11.322-2.062-14.605 2.778-3.262 4.798-2.041 11.343 2.778 14.605 104.613 71.258 167.032 83.59 245.782 81.696 180.017-4.609 320.112-107.686 365.61-269.036 1.599-5.598-1.684-11.406-7.26-12.985-0.947-0.274-1.915-0.4-2.862-0.4zM672.282 31.153c-4.861 0-9.807 0.063-14.794 0.189-180.017 4.609-320.112 107.686-365.61 269.036-1.578 5.598 1.684 11.406 7.281 13.006 5.535 1.557 11.406-1.684 12.985-7.281 42.91-152.132 175.45-249.359 345.87-253.715 75.972-1.936 132.898 9.575 233.407 78.034 4.798 3.262 11.343 2.041 14.605-2.778 3.283-4.798 2.041-11.343-2.757-14.605-98.026-66.754-159.014-81.885-230.987-81.885zM1107.071 298.537c-0.421 0-0.821 0-1.263 0.021-8.418 0.337-16.225 3.914-21.95 10.144l-158.32 171.957 30.957 28.495 151.101-164.107 163.034 152.217 28.747-30.767-170.841-159.498c-5.914-5.472-13.469-8.46-21.466-8.46zM514.447 293.771l128.141 116.756c42.279 38.491 66.901 66.27 66.901 101.604 0 39.122-25.885 58.715-61.851 58.715-38.512 0-65.028-22.749-78.897-64.397l-40.406 11.364c15.173 58.062 60.588 93.397 118.671 93.397 66.901 0 107.917-39.101 107.917-97.185 0-43.542-31.567-82.032-77.003-123.701l-47.982-43.542c-11.364-10.733-32.809-22.076-32.809-22.076s23.36 1.894 35.334 1.894h130.646v-38.512h-248.665v5.682z" />
<glyph unicode="&#xe922;" glyph-name="Group24" horiz-adv-x="1007" d="M502.291 792.345c-8.687 0-15.738 7.050-15.738 15.738v70.904c0 8.687 7.050 15.738 15.738 15.738s15.738-7.050 15.738-15.738v-70.904c0-8.687-7.050-15.738-15.738-15.738zM502.946 955.799c-277.76 0-502.956-225.175-502.956-502.935 0-277.781 225.196-502.956 502.956-502.956s502.956 225.175 502.956 502.956c0 277.76-225.196 502.935-502.956 502.935zM502.946 924.324c259.966 0 471.481-211.494 471.481-471.46s-211.515-471.481-471.481-471.481c-259.987 0-471.481 211.515-471.481 471.481s211.494 471.46 471.481 471.46zM502.291 10.993c-8.687 0-15.738 7.050-15.738 15.738v70.904c0 8.687 7.050 15.738 15.738 15.738s15.738-7.050 15.738-15.738v-70.904c0-8.687-7.050-15.738-15.738-15.738zM753.479 688.308c-4.029 0-8.058 1.532-11.121 4.616-6.148 6.148-6.148 16.094 0 22.243l50.109 50.13c6.148 6.148 16.115 6.148 22.264 0s6.148-16.094 0-22.243l-50.13-50.13c-3.064-3.085-7.092-4.616-11.121-4.616zM200.979 135.808c-4.029 0-8.058 1.532-11.121 4.616-6.148 6.148-6.148 16.094 0 22.243l50.109 50.13c6.148 6.148 16.115 6.148 22.264 0s6.148-16.094 0-22.243l-50.13-50.13c-3.064-3.085-7.092-4.616-11.121-4.616zM928.418 437.12h-70.904c-8.687 0-15.738 7.050-15.738 15.738s7.050 15.738 15.738 15.738h70.904c8.687 0 15.738-7.050 15.738-15.738s-7.050-15.738-15.738-15.738zM147.064 437.12h-70.904c-8.687 0-15.738 7.050-15.738 15.738s7.050 15.738 15.738 15.738h70.904c8.687 0 15.738-7.050 15.738-15.738s-7.050-15.738-15.738-15.738zM803.601 135.808c-4.029 0-8.058 1.532-11.121 4.616l-50.13 50.13c-6.148 6.148-6.148 16.094 0 22.243s16.115 6.148 22.264 0l50.109-50.13c6.148-6.148 6.148-16.094 0-22.243-3.064-3.085-7.092-4.616-11.121-4.616zM251.102 688.308c-4.029 0-8.058 1.532-11.121 4.616l-50.13 50.13c-6.148 6.148-6.148 16.094 0 22.243s16.115 6.148 22.264 0l50.109-50.13c6.148-6.148 6.148-16.094 0-22.243-3.064-3.085-7.092-4.616-11.121-4.616zM230.916 357.386l44.317 22.662c13.094-30.216 36.784-44.821 69.015-44.821 33.238 0 60.433 21.655 60.433 60.936 0 38.799-29.188 56.425-67.987 56.425-20.144 0-35.252-4.029-45.325-9.569l-5.036 5.54 71.009 92.16c7.575 10.093 16.619 18.151 16.619 18.151s-14.101-2.035-27.195-2.035h-89.663v42.828h195.462v-4.532l-72.058-92.181c-6.547-8.561-14.101-14.605-15.108-15.108 50.382-4.029 93.713-36.26 93.713-92.685 0-57.915-42.849-105.778-114.864-105.778-57.915 0-95.203 29.23-113.332 68.008zM713.027 470.717c0 52.9-36.281 87.649-83.116 87.649-45.849 0-82.109-34.749-82.109-87.649 0-52.396 36.26-88.152 82.109-88.152 46.835 0 83.116 35.756 83.116 88.152zM493.916 470.717c0 78.080 64.483 132.973 135.995 132.973 72.519 0 137.002-54.893 137.002-132.973 0-77.576-64.483-133.98-137.002-133.98-71.512 0-135.995 56.404-135.995 133.98z" />
<glyph unicode="&#xe923;" glyph-name="Shield" horiz-adv-x="972" d="M28.361 822.808c0.42-78.704 20.123-587.489 444.814-849.756 48.287 20.234 402.468 190.609 463.7 849.756-59.884 31.742-431.207 208.502-908.514 0zM471.937-60.281c-2.341 0-4.661 0.641-6.759 1.922-480.245 291.778-465.29 886.689-465.092 892.676 0.221 6.318 3.733 11.884 8.946 14.203 280.115 124.827 523.054 117.781 677.503 89.86 167.791-30.329 267.944-89.572 272.119-92.091 5.081-3.026 8.018-9.189 7.444-15.617-33.487-383.648-164.257-604.962-268.077-723.051-113.208-128.825-217.558-165.692-221.954-167.194-1.347-0.464-2.739-0.707-4.131-0.707zM456.795 596.372h-79.61v63.838h156.945v-385.239h-77.335zM328.853 446.394l10.735 42.964h-39.363l-11.155-42.964h39.783zM260.84 424.128h-26.662v22.266h31.831l10.735 42.964h-28.628v22.266h34.194l10.735 43.361h23.083l-10.735-43.361h39.363l11.133 43.361h23.083l-10.758-43.361h26.264v-22.266h-31.831l-10.735-42.964h28.23v-22.266h-34.194l-10.338-42.964h-23.459l10.713 42.964h-39.363l-10.338-42.964h-23.459l11.133 42.964zM159.786 805.574c-4.352 0-8.482 2.584-10.227 6.87-2.319 5.633 0.398 12.083 6.030 14.402 3.070 1.259 311.35 124.407 642.668 4.771 5.743-2.076 8.703-8.416 6.627-14.137-2.054-5.743-8.416-8.703-14.137-6.649-323.057 116.654-623.782-3.225-626.808-4.44-1.347-0.552-2.761-0.817-4.153-0.817zM601.337 115.656c-3.159 0-6.273 1.325-8.438 3.91-3.954 4.661-3.358 11.641 1.303 15.573 201.433 170.11 266.972 550.688 267.613 554.509 0.994 6.008 6.627 10.117 12.701 9.079 6.008-0.994 10.073-6.693 9.079-12.701-2.651-15.949-67.439-392.373-275.145-567.763-2.076-1.745-4.595-2.607-7.113-2.607z" />
</font>
</defs>
</svg>
